Шри Ауробиндо - Савитри [Екатерина Смирнова, 2013, Поэма, 256 kbps]

Описание | Скачать торрент

Савитри



Год выпуска: 2013
Язык: Русский
Автор: Шри Ауробиндо
Исполнитель: Екатерина Смирнова
Жанр: Поэма
Издательство: Московский центр интегральной йоги имени Шри Ауробиндо
Тип аудиокниги: аудиокнига
Аудио кодек: AAC
Формат: .m4b
Битрейт: 256 kbps
Частота оцифровки: 44100 Гц
Общая продолжительность: 24:18:31
Описание:
«Савитри» — главное произведение Шри Ауробиндо - видного общественного деятеля Индии, великого духовного первопроходца, мыслителя, поэта-провидца.
Над поэмой "Савитри" Шри Ауробиндо работал в течение нескольких десятилетий, продолжая совершенствовать ее до последних дней своей жизни.
Поэма основана на древней легенде, излагаемой в индийском эпосе Махабхарата, о преданной жене царевне Савитри, которая силой своей любви и праведности побеждает смерть и возвращает к жизни своего мужа царевича Сатьявана.
Шри Ауробиндо раскрывает символическую суть персонажей и сюжета древней легенды и использует ее для выражения собственных духовных постижений и свершений.
При создании своего эпоса Шри Ауробиндо ставил задачу выразить в слове высшие уровни сознания, доступные человеку, чтобы помочь всем духовным искателям соприкоснуться с этими уровнями и возвыситься до них. Результатом стала грандиозная эпическая поэма объемом около 24.000 строк, являющаяся наиболее полным и совершенным выражением уникального синтетического мировоззрения и духовного опыта Шри Ауробиндо, а также самым большим поэтическим произведением на английском языке.
(Д.Мельгунов)
Доп. информация:
Под эгидой Московского Центра Интегральной Йоги имени Шри Ауробиндо был запущен проект "Савитри. Аудиокнига". Инициировал этот проект Игорь Жигунов, музыкант, композитор и саундпродюсер. Он является также автором всего музыкального материла и продюсером проекта. Голосом поэмы стала Екатерина Смирнова - Старший Наставник нашего Центра.
В рамках проекта планируется сделать профессиональные аудиозаписи всех Книг поэмы Шри Ауробиндо "Савитри". За основу взят литературный перевод поэмы на русский язык Корнеева А.Б.
Вшитая обложка: есть
Разбитие на главы: есть
Содержание
 Книга первая "Книга Начал". 
Песнь первая. Символический Рассвет
Песнь вторая. Предмет Спора
Песнь третья. Йога Царя: Йога Освобождения Души
Песнь четвертая. Тайное знание
Песнь пятая. Йога Царя: Йога Свободы и Величия Духа
Книга вторая "Книга Путешественника Миров".
Песнь первая. Лестница Мира
Песнь вторая. Царство тонкой Материи
Песнь третья. Слава и несостоятельность Жизни
Песнь четвертая. Царство маленькой Жизни
Песнь пятая. Божества маленькой Жизни
Песнь шестая. Царства и божества более великой Жизни
Песнь седьмая. Нисхождение в Ночь
Песнь восьмая. Мир Фальши, Мать Зла и Сыны Тьмы
Песнь девятая. Рай Богов Жизни
Песнь десятая. Царства и Божества малого Ума
Песнь одиннадцатая. Царства и Божества более великого Ума
Песнь двенадцатая. Небеса Идеала
Песнь тринадцатая. В Самости Ума
Песнь четырнадцатая. Мировая Души
Песнь пятнадцатая. Царства более великого Знания
Книга третья "Книга Божественной Матери".
Песнь первая. Преследование Непостижимого
Песнь вторая. Обожание Божественной Матери
Песнь третья. Дом Духа и Новое Творение
Песнь четвертая. Видение и Дар
Книга четвертая "Книга рождения и поиска".
Песнь первая. Рождение и детство Пламени
Песнь вторая. Рост Пламени
Песнь третья. Призыв к поиску
Песнь четвертая. Поиск
Книга пятая "Книга Любви".
Песнь первая. Предначертанное место встречи
Песнь вторая. Сатьяван
Песнь третья. Сатьяван и Савитри
Книга шестая "Книга Судьбы".
Песнь первая. Слово Судьбы
Песнь вторая. Путь Судьбы и проблема страданий
Книга седьмая "Книга Йоги".
Песнь первая. Радость единения; суровое испытание предвидением
Смерти, горем сердца и болью
Песнь вторая. Парабола Поисков Души
Поэма не полная.
Книга седьмая. Книга Йоги. В неё вошли первые две главы из семи.
Всего книг двенадцать.
По мере выхода аудиозаписи раздача будет обновляться.
MediaInfo
 Разбита на 7 частей (книг) 
Савитри. кн.1. Книга Начал.
лог
Audio
ID : 1
Format : AAC
Format/Info : Advanced Audio Codec
Format profile : LC
Codec ID : 40
Duration : 4h 53mn
Bit rate mode : Variable
Bit rate : 256 Kbps
Maximum bit rate : 459 Kbps
Channel(s) : 2 channels
Channel positions : Front: L R
Sampling rate : 44.1 KHz
Compression mode : Lossy
Stream size : 553 MiB (99%)
Encoded date : UTC 2013-09-14 16:09:57
Tagged date : UTC 2013-09-14 16:11:26
Савитри. кн.2. Книга Путешественника Миров.
лог
Audio
ID : 1
Format : AAC
Format/Info : Advanced Audio Codec
Format profile : LC
Codec ID : 40
Duration : 10h 55mn
Bit rate mode : Variable
Bit rate : 256 Kbps
Maximum bit rate : 466 Kbps
Channel(s) : 2 channels
Channel positions : Front: L R
Sampling rate : 44.1 KHz
Compression mode : Lossy
Stream size : 1.20 GiB (99%)
Encoded date : UTC 2013-09-14 16:31:39
Tagged date : UTC 2013-09-14 16:35:01
Савитри. кн.3. Книга Божественной Матери.
лог
Audio
ID : 1
Format : AAC
Format/Info : Advanced Audio Codec
Format profile : LC
Codec ID : 40
Duration : 2h 5mn
Bit rate mode : Variable
Bit rate : 256 Kbps
Maximum bit rate : 460 Kbps
Channel(s) : 2 channels
Channel positions : Front: L R
Sampling rate : 44.1 KHz
Compression mode : Lossy
Stream size : 233 MiB (99%)
Encoded date : UTC 2013-09-14 16:50:27
Tagged date : UTC 2013-09-14 16:51:03
Савитри. кн.4. Книга рождения и поиска.
лог
Audio
ID : 1
Format : AAC
Format/Info : Advanced Audio Codec
Format profile : LC
Codec ID : 40
Duration : 1h 57mn
Bit rate mode : Variable
Bit rate : 256 Kbps
Maximum bit rate : 460 Kbps
Channel(s) : 2 channels
Channel positions : Front: L R
Sampling rate : 44.1 KHz
Compression mode : Lossy
Stream size : 217 MiB (99%)
Encoded date : UTC 2013-09-14 16:56:51
Tagged date : UTC 2013-09-14 16:57:26
Савитри. кн.5. Книга Любви.
лог
Audio
ID : 1
Format : AAC
Format/Info : Advanced Audio Codec
Format profile : LC
Codec ID : 40
Duration : 1h 10mn
Bit rate mode : Variable
Bit rate : 256 Kbps
Maximum bit rate : 461 Kbps
Channel(s) : 2 channels
Channel positions : Front: L R
Sampling rate : 44.1 KHz
Compression mode : Lossy
Stream size : 131 MiB (99%)
Encoded date : UTC 2013-09-14 17:02:08
Tagged date : UTC 2013-09-14 17:02:29
Савитри. кн.6. Книга Судьбы.
лог
Audio
ID : 1
Format : AAC
Format/Info : Advanced Audio Codec
Format profile : LC
Codec ID : 40
Duration : 2h 15mn
Bit rate mode : Variable
Bit rate : 256 Kbps
Maximum bit rate : 462 Kbps
Channel(s) : 2 channels
Channel positions : Front: L R
Sampling rate : 44.1 KHz
Compression mode : Lossy
Stream size : 255 MiB (99%)
Encoded date : UTC 2013-09-14 17:06:20
Tagged date : UTC 2013-09-14 17:06:59
Савитри. кн.7. Книга Йоги.
Audio
ID : 1
Format : AAC
Format/Info : Advanced Audio Codec
Format profile : LC
Codec ID : 40
Duration : 1h 0mn
Bit rate mode : Variable
Bit rate : 256 Kbps
Maximum bit rate : 460 Kbps
Channel(s) : 2 channels
Channel positions : Front: L R
Sampling rate : 44.1 KHz
Compression mode : Lossy
Stream size : 114 MiB (99%)
Encoded date : UTC 2013-09-14 17:30:01
Tagged date : UTC 2013-09-14 17:30:17
MediaInfo

поэма, 2013
  • Скачать торрент: "Шри Ауробиндо - Савитри [Екатерина Смирнова, 2013, Поэма, 256 kbps]"

    сидеры:
    0
    личеры:
    0
    аватар wolodja66 wolodja66 2013-10-16