(Haed Rock)[LP] [24/192] Scorpions / Best Of Scorpions - 1979(1989) Reissue, FLAC (image+.cue)

Описание | Скачать торрент

Scorpions / Best Of Scorpions



Жанр: Haed Rock
Год выпуска: 1979(1989) Reissue
Лейбл: RCA – NL 74006/ARTETON
Страна-производитель: Europe
Аудио кодек: FLAC
Тип рипа: image+.cue
Формат записи: 24/192
Формат раздачи: 24/192
Продолжительность: 00:39:40
Треклист:
A1 - Steamrock Fever
A2 - Pictured Life
A3 - Robot Man
A4 - Backstage Queen
A5 - Speedy's Coming(Drums – Jurgen Rosenthal Producer – Scorpions )
A6 - Hell Cat (Vocals – Ulrich Roth)
B1 - He's A Woman, She's A Man
B2 - In Trance
B3 - Dark Lady
B4 - The Sails Of Charon
B5 - Virgin Killer
Источник оцифровки: автором раздачи
Код класса состояния винила: VG+
Устройство воспроизведения: Pioneer PL-30L
Головка звукоснимателя: AT-13E
Предварительный усилитель: Creec
АЦП: Xonar Essence STX
Программа-оцифровщик: Sound Forge Pro 10.0
Обработка: Adobe Audition CS6
Сэмпл
в папке

Доп. информация:
Состав
Bass – Francis Buchholz
Drums, Percussion – Herman Rarebell (tracks: A1, B1, B4), Rudy Lenners (tracks: A2 to A4, A6, B2, B3, B5)
Lead Guitar – Ulrich Roth
Producer – Dieter Dierks (tracks: A1 to A4, A6, B1 to B5)
Rhythm Guitar – Rudolf Schenker
Vocals – Klaus Meine
Written-By – Rarebell* (tracks: B1), Meine* (tracks: A1 to A5, B1, B2), Schenker* (tracks: A1 to A5, B1, B2), Roth* (tracks: A6, B3 to B5)
Phonographic Copyright (p) – RCA Schallplatten GmbH
Distributed By – BMG Records
Distributed By – BMG Ariola
Информация об издании
http://www.discogs.com/Scorpions-Best-Of-Scorpions/release/1934799
Year is not shown on the release.
On label: NL 74006
On back and spine: NL74006
White labels
Barcode and Other Identifiers▼
Rights Society: BIEM/GEMA
Label Code: LC 0316
Matrix:A side (R60 00111/ 1-1)
Matrix:B side (R60 00112/ 1-1)
Cue
TITLE "Best Of Scorpions"
PERFORMER "Scorpions"
FILE "side 1.Flac" WAVE
TRACK 01 AUDIO
TITLE "Steamrock Fever"
PERFORMER "Scorpions"
INDEX 01 00:00:00
TRACK 02 AUDIO
TITLE "Pictured Life"
PERFORMER "Scorpions"
INDEX 01 03:47:53
TRACK 03 AUDIO
TITLE "Robot Man"
PERFORMER "Scorpions"
INDEX 01 07:14:56
TRACK 04 AUDIO
TITLE "Backstage Queen"
PERFORMER "Scorpions"
INDEX 01 09:61:18
TRACK 05 AUDIO
TITLE "Speedy's Coming"
PERFORMER "Scorpions"
INDEX 01 13:16:26
TRACK 06 AUDIO
TITLE "Hell Cat"
PERFORMER "Scorpions"
INDEX 01 16:54:49
FILE "side 2.Flac" WAVE
TRACK 07 AUDIO
TITLE "He's A Woman, She's A Man"
PERFORMER "Scorpions"
INDEX 01 00:00:00
TRACK 08 AUDIO
TITLE "In Trance"
PERFORMER "Scorpions"
INDEX 01 03:26:73
TRACK 09 AUDIO
TITLE "Dark Lady"
PERFORMER "Scorpions"
INDEX 01 08:06:65
TRACK 10 AUDIO
TITLE "The Sails Of Charon"
PERFORMER "Scorpions"
INDEX 01 11:36:65
TRACK 11 AUDIO
TITLE "Virgin Killer"
PERFORMER "Scorpions"
INDEX 01 15:61:34
Все материалы представлены исключительно в ознакомительных целях

haed rock, lossless
  • Скачать торрент: "(Haed Rock)[LP] [24/192] Scorpions / Best Of Scorpions - 1979(1989) Reissue, FLAC (image+.cue)"

    сидеры:
    0
    личеры:
    0
    аватар wolodja66 wolodja66 2013-05-23