Ночь в музее: Дилогия / Night at the Museum: Dilogy (Шон Леви)[2006-2009, Комедия, Приключения, Семейный, HDRip-AVC] DUB

Описание | Скачать торрент

Ночь в музее: Дилогия / Night at the Museum: Dilogy (Шон Леви)[2006-2009, Комедия, Приключения, Семейный, HDRip-AVC] DUB

Слоган: «Если история действительно оживает!»

Перевод: Профессиональный (полное дублирование)
Субтитры: Русские, Английские
Формат: HDRip-AVC, mkv, h.264, aac

Страна: США, Великобритания

Режиссер: Шон Леви
Жанр: Фэнтези, Комедия, Приключения, Семейный
Продолжительность: 01:48:36
Год выпуска: 2006

В ролях: Бен Стиллер, Карла Гуджино, Дик Ван Дайк, Микки Руни, Билл Коббс,
Джэйк Черри, Рики Джервэйс, Робин Уильямс, Ким Рэйвер, Патрик Галлахер

Описание: Молодой человек в поисках работы попадает в музей, где приступает к обязанностям ночного сторожа. Оказывается, не такая это простая работа, как могло показаться на первый взгляд. Ведь самое главное — не только не дать никому войти в музей, но и не позволить никому и ничему из музея выйти….







Видео: 1 088*592(16:9), 23,976 fps, MPEG4/ISO/AVC , High@L4.1, х264, ~ 2 448 Kbps avg, 0.159 bit/pixel
Аудио#1: [Русский]48,0 KHz,AC3 LCR, L,R, LFE, 6 channels, 448 Kbps[Дубляж]
Аудио#2: [Английский]48,0 KHz,AC3 LCR, L,R, LFE, 6 channels, 448 Kbps[Оригинал]



MediaInfo

General
Night.at.the.Museum.bugariarm.mkv
Format : Matroska
File size : 2.18 GiB
Duration : 1h 48mn
Overall bit rate : 2 872 Kbps
Encoded date : UTC 2009-04-15 06:42:51
Writing application : mkvmerge v2.6.0 ('Kelly watch the Stars') built on Mar 24 2009 15:23:17
Writing library : libebml v0.7.7 + libmatroska v0.8.1
Video #1
ID : 1
Format : AVC
Format/Info : Advanced Video Codec
Format profile : High@L4.1
Format settings, CABAC : Yes
Format settings, ReFrames : 12 frames
Muxing mode : Container profile=Unknown@4.1
Codec ID : V_MPEG4/ISO/AVC
Duration : 1h 48mn
Nominal bit rate : 2 448 Kbps
Width : 1 088 pixels
Height : 592 pixels
Display aspect ratio : 16:9
Frame rate : 23.976 fps
Resolution : 24 bits
Colorimetry : 4:2:0
Scan type : Progressive
Bits/(Pixel*Frame) : 0.159
Title : Night.at.the.Museum.Rip.mkv
Writing library : x264 core 67 r1134 b8808bf
Encoding settings : cabac=1 / ref=12 / deblock=1:-3:-3 / analyse=0x3:0x133 / me=umh / subme=9 / psy_rd=1.0:0.0 / mixed_ref=1 / me_range=16 / chroma_me=1 / trellis=2 / 8x8dct=1 / cqm=0 / deadzone=21,11 / chroma_qp_offset=-2 / threads=2 / nr=0 / decimate=0 / mbaff=0 / bframes=3 / b_pyramid=1 / b_adapt=1 / b_bias=0 / direct=3 / wpredb=1 / keyint=250 / keyint_min=25 / scenecut=40 / rc=2pass / bitrate=2448 / ratetol=1.0 / qcomp=0.60 / qpmin=10 / qpmax=51 / qpstep=4 / cplxblur=20.0 / qblur=0.5 / ip_ratio=1.40 / pb_ratio=1.30 / aq=1:1.00
Language : English
Audio #2
ID : 2
Format : AAC
Format/Info : Advanced Audio Codec
Format version : Version 4
Format profile : LC
Format settings, SBR : No
Codec ID : A_AAC
Duration : 1h 48mn
Channel(s) : 6 channels
Channel positions : Front: L C R, Rear: L R, LFE
Sampling rate : 48.0 KHz
Resolution : 16 bits
Title : Night.at.the.Museum.BDRip.Rus.m4a
Language : Russian
Audio #3
ID : 3
Format : AAC
Format/Info : Advanced Audio Codec
Format version : Version 4
Format profile : LC
Format settings, SBR : No
Codec ID : A_AAC
Duration : 1h 48mn
Channel(s) : 6 channels
Channel positions : Front: L C R, Rear: L R, LFE
Sampling rate : 48.0 KHz
Resolution : 16 bits
Title : Night.at.the.Museum.BDRip.Eng.m4a
Language : English
Text #4
ID : 4
Format : UTF-8
Codec ID : S_TEXT/UTF8
Codec ID/Info : UTF-8 Plain Text
Language : Russian
Text #5
ID : 5
Format : UTF-8
Codec ID : S_TEXT/UTF8
Codec ID/Info : UTF-8 Plain Text
Language : English


____________________________________________________________________________________________________________________________________________

Ночь в музее 2 / Night at the Museum: Battle of the Smithsonian


Ночь в музее: Дилогия / Night at the Museum: Dilogy (Шон Леви)[2006-2009, Комедия, Приключения, Семейный, HDRip-AVC] DUB

Слоган: «Когда наступит ночь, начнется битва»

Перевод: Профессиональный (полное дублирование)
Субтитры: Русские, Английские
Формат: HDRip-AVC, mkv, h.264, ac3

Страна: США, Канада

Режиссер: Шон Леви
Жанр: Фэнтези, Комедия, Приключения, Семейный
Продолжительность: 01:44:43
Год выпуска: 2009

В ролях: Бен Стиллер, Эми Адамс, Оуэн Уилсон, Хэнк Азария, Робин Уильямс, Кристофер Гест, Ален Шаба, Стив Кугэн, Рики Джервис, Билл Хадер, Джон Бернтал, Патрик Галлахер, Джэйк Черри, Рэми Малек, Мицуо Пек, Керри ван дер Грайнд, Мэттью Харрисон, Рик Добран, Рэнди Ли, Дэррил Квон, Джералд Вонг

Описание: Экспонаты Музея Естественной истории живут обычной жизнью. По коридорам бегает скелет динозавра, герои гражданской войны сражаются друг с другом, древние люди добывают огонь, миниатюрные ковбои выясняют отношения с древними Римлянами, Теодор Рузвельт философствует о смысле жизни и ухаживает за индианкой. Никто из этой разношерстной компании даже не представляет, что скоро им предстоит познакомиться с новыми экспонатами. Среди них окажется и та, что разобьет сердце охраннику Ларри.







Видео: 1 280*544(2,35:1), 23,976 fps, MPEG4/ISO/AVC , High@L4.1, х264, ~ 2 035 Kbps avg, 0.122 bit/pixel
Аудио#1: [Русский]48,0 KHz,AC3 LCR, L,R, LFE, 6 channels, 448 Kbps[Дубляж]
Аудио#2: [Английский]48,0 KHz,AC3 LCR, L,R, LFE, 6 channels, 448 Kbps[Оригинал]



MediaInfo
D:\Films\Night.At.The.Museum.Battle.Of.The.Smithsonian.2009.HDRip.x264.AC3.Rus.Eng.SUB.mkv
General
Complete name : D:\Films\Night.At.The.Museum.Battle.Of.The.Smithsonian.2009.HDRip.x264.AC3.Rus.Eng.SUB.mkv
Format : Matroska
File size : 2.19 GiB
Duration : 1h 44mn
Overall bit rate : 2 990 Kbps
Movie name : :: HDRip by duk ::
Encoded date : UTC 2009-09-10 15:08:11
Writing application : mkvmerge v2.7.0 ('Do It Again') built on Apr 15 2009 00:27:10
Writing library : libebml v0.7.7 + libmatroska v0.8.1
Video #1
ID : 1
Format : AVC
Format/Info : Advanced Video Codec
Format profile : High@L4.0
Format settings, CABAC : Yes
Format settings, ReFrames : 8 frames
Muxing mode : Container profile=Unknown@4.0
Codec ID : V_MPEG4/ISO/AVC
Duration : 1h 44mn
Bit rate : 2 035 Kbps
Nominal bit rate : 2 092 Kbps
Width : 1 280 pixels
Height : 544 pixels
Display aspect ratio : 2.35:1
Frame rate : 23.976 fps
Resolution : 24 bits
Colorimetry : 4:2:0
Scan type : Progressive
Bits/(Pixel*Frame) : 0.122
Stream size : 1.49 GiB (68%)
Title : 1280x544@23.976 MPEG-4 part 10 (AVC)
Writing library : x264 core 68 r1183M f21daff
Encoding settings : cabac=1 / ref=8 / deblock=1:-2:-2 / analyse=0x3:0x133 / me=umh / subme=8 / psy_rd=1.0:0.0 / mixed_ref=1 / me_range=16 / chroma_me=1 / trellis=2 / 8x8dct=1 / cqm=0 / deadzone=21,11 / chroma_qp_offset=-2 / threads=6 / nr=0 / decimate=1 / mbaff=0 / bframes=3 / b_pyramid=1 / b_adapt=2 / b_bias=0 / direct=3 / wpredb=1 / keyint=250 / keyint_min=25 / scenecut=40 / rc=2pass / bitrate=2092 / ratetol=1.0 / qcomp=0.60 / qpmin=10 / qpmax=51 / qpstep=4 / cplxblur=20.0 / qblur=0.5 / ip_ratio=1.40 / pb_ratio=1.30 / aq=1:1.00
Language : English
Audio #2
ID : 2
Format : AC-3
Format/Info : Audio Coding 3
Codec ID : A_AC3
Duration : 1h 44mn
Bit rate mode : Constant
Bit rate : 448 Kbps
Channel(s) : 6 channels
Channel positions : Front: L C R, Surround: L R, LFE
Sampling rate : 48.0 KHz
Stream size : 336 MiB (15%)
Title : AC3, 48 KHz, 448 kbps, CBR, 6 Ch (Front: L C R, Surround: L R, LFE)
Language : Russian
Audio #3
ID : 3
Format : AC-3
Format/Info : Audio Coding 3
Codec ID : A_AC3
Duration : 1h 44mn
Bit rate mode : Constant
Bit rate : 448 Kbps
Channel(s) : 6 channels
Channel positions : Front: L C R, Surround: L R, LFE
Sampling rate : 48.0 KHz
Stream size : 336 MiB (15%)
Title : AC3, 48 KHz, 448 kbps, CBR, 6 Ch (Front: L C R, Surround: L R, LFE)
Language : English
Text #4
ID : 4
Format : UTF-8
Codec ID : S_TEXT/UTF8
Codec ID/Info : UTF-8 Plain Text
Language : Russian
Text #5
ID : 5
Format : UTF-8
Codec ID : S_TEXT/UTF8
Codec ID/Info : UTF-8 Plain Text
Language : English

фэнтези, комедия, приключения, семейное кино, 2006, США, Великобритания
  • Скачать торрент: "Ночь в музее: Дилогия / Night at the Museum: Dilogy (Шон Леви)[2006-2009, Комедия, Приключения, Семейный, HDRip-AVC] DUB"

    сидеры:
    0
    личеры:
    0
    аватар robot robot 2011-04-26