Оттепель / The Thaw (Марк А. Льюис) [2009, ужасы, фантастика, триллер, BDRip 720p] MVO

Описание | Скачать торрент

Оттепель / The Thaw (Марк А. Льюис) [2009, ужасы, фантастика, триллер, BDRip 720p] MVO
Перевод: Профессиональный (многоголосый, закадровый)
Субтитры: русские, английские
Формат: BDRip, MKV, H.264, AC3
Страна: США, Канада
Режиссер: Марк А. Льюис
Жанр: ужасы, фантастика, триллер
Продолжительность: 01:33:58
Год выпуска: 2009

В ролях: Вэл Килмер, Марта МакАйсак, Аарон Эшмор, Кайл Шмид, Стеф Сонг, Вив Ликок, Лиза Мари Блэр, Джон Калландер, Бренда Кричлоу, Энн Мари Лодер

Описание: Действие происходит в Арктике. В центре сюжета группа исследователей, подвергшаяся нападению паразита-убийцы, вырвавшегося на свободу вследствие таяния арктических льдов.

Рейтинг на КиноПоиске: 5.131
Рейтинг на IMDB: 5.3/10
Рейтинг на MPAA: R

Видео: 1280x544p (2.35:1), 23.976 fps, AVC MPEG4 (x264), High@L4.1, ~5147 kbps avg, 0.308 bit/pixel
Аудио #1: русский 48 kHz, AC3, 6 ch, ~448 kbps avg [Профессиональный (многоголосый закадровый) (СОЮЗ Видео)]
Аудио #2: английский 48 kHz, AC3, 6 ch, ~448 kbps avg [Оригинал] (Внешний файл)

Слоган: «Сенсационное открытие. Безжалостное зло.»

Из отзывов…

Трейлер (youtube)
[youtube=http://www.youtube.com/watch?v=u94EM7RAkZ8]
MediaInfo
Общее
Уникальный идентификатор : 188345717802196226971398662855809241660 (0x8DB210D70A005D46980A37E91733123C)
Полное имя : T:\Video\Ottepel.2009.BDRip.720p\Ottepel.2009.BDRip.720p.mkv
Формат : Matroska
Размер файла : 3,66 Гбайт
Продолжительность : 1 ч. 33 м.
Общий поток : 5580 Кбит/сек
Дата кодирования : UTC 2011-05-05 10:48:20
Программа кодирования : mkvmerge v4.0.0 ('The Stars were mine') сборка от Jun 6 2010 16:18:42
Библиотека кодирования : libebml v1.0.0 + libmatroska v1.0.0

Видео
Идентификатор : 1
Формат : AVC
Формат/Информация : Advanced Video Codec
Профиль формата : High@L4.1
Параметр CABAC формата : Да
Параметр ReFrames формата : 8 кадры
Идентификатор кодека : V_MPEG4/ISO/AVC
Продолжительность : 1 ч. 33 м.
Битрейт : 5147 Кбит/сек
Ширина : 1280 пикс.
Высота : 544 пикс.
Соотношение сторон : 2,35:1
Частота кадров : 24,000 кадр/сек
Цветовое пространство : YUV
Подвыборка цветности : 4:2:0
Битовая глубина : 8 бит
Тип развёртки : Прогрессивная
Бит/(Пиксели*Кадры) : 0.308
Размер потока : 3,30 Гбайт (90%)
Заголовок : 2009.BDRip.720p
Библиотека кодирования : x264 core 98 r1649 c54c47d
Настройки программы : cabac=1 / ref=8 / deblock=1:-3:-3 / analyse=0x3:0x113 / me=umh / subme=9 / psy=1 / psy_rd=1.10:0.00 / mixed_ref=1 / me_range=32 / chroma_me=1 / trellis=2 / 8x8dct=1 / cqm=0 / deadzone=21,11 / fast_pskip=0 / chroma_qp_offset=-4 / threads=6 / sliced_threads=0 / nr=0 / decimate=0 / interlaced=0 / constrained_intra=0 / bframes=6 / b_pyramid=2 / b_adapt=2 / b_bias=0 / direct=3 / weightb=1 / weightp=2 / keyint=250 / keyint_min=25 / scenecut=40 / intra_refresh=0 / rc_lookahead=48 / rc=2pass / mbtree=1 / bitrate=5147 / ratetol=1.0 / qcomp=0.60 / qpmin=10 / qpmax=51 / qpstep=4 / cplxblur=20.0 / qblur=0.5 / ip_ratio=1.40 / aq=1:0.80
Язык : English

Аудио
Идентификатор : 2
Формат : AC-3
Формат/Информация : Audio Coding 3
Расширение режима : CM (complete main)
Идентификатор кодека : A_AC3
Продолжительность : 1 ч. 33 м.
Вид битрейта : Постоянный
Битрейт : 448 Кбит/сек
Канал(ы) : 6 канала(ов)
Расположение каналов : Front: L C R, Side: L R, LFE
Частота : 48,0 КГц
Битовая глубина : 16 бит
Метод сжатия : С потерями
Размер потока : 301 Мбайт (8%)
Заголовок : MVO (СОЮЗ Видео)
Язык : Russian

Текст #1
Идентификатор : 3
Формат : UTF-8
Идентификатор кодека : S_TEXT/UTF8
Идентификатор кодека/Информация : UTF-8 Plain Text
Заголовок : русский
Язык : Russian

Текст #2
Идентификатор : 4
Формат : UTF-8
Идентификатор кодека : S_TEXT/UTF8
Идентификатор кодека/Информация : UTF-8 Plain Text
Заголовок : английский


ужасы, фантастика, триллер, HD, 2009, США, Канада
  • Скачать торрент: "Оттепель / The Thaw (Марк А. Льюис) [2009, ужасы, фантастика, триллер, BDRip 720p] MVO"

    сидеры:
    0
    личеры:
    0
    аватар robot robot 2011-05-13