Не отпускай меня / Never Let Me Go (Марк Романек) [2010, Фантастика, триллер, драма, HDRip-AVC]VO

Описание | Скачать торрент

Не отпускай меня / Never Let Me Go (Марк Романек) [2010, Фантастика, триллер, драма, HDRip-AVC]VOПеревод: Любительский (одноголосый)
cубтитры: русские, английские
Формат: HDRip, MKV, H.264, AC3
Страна: Великобритания, США
Режиссер: Марк Романек
Жанр: Фантастика, триллер, драма
Продолжительность: 01:43:46
Год выпуска: 2010

В ролях: Кэри Маллиган, Эндрю Гарфилд, Кира Найтли, Иззи Мейкл-Смолл, Чарли Роу, Элла Пурнелла, Шарлотта Рэмплинг, Салли Хокинс, Кейт Боуc Ренна, Ханна Шарп

Описание: Троица главных героев выросла в интернате и была лишена любого контакта с окружающим миром. Но со временем друзья узнают, что они на самом деле — клоны, выращиваемые для донорства органов

Рейтинг Кинопоиск.RU: 7.253
Рейтинг IMDB: 7.5
Рейтинг MPAA: R

Видео: 1280x546 (2.35:1), 23.976 fps, AVC MPEG-4 High@L3.1, ~2629 kbps avg, 157 bit/pixel
Аудио: 48,000 kHz,A_AC3,6 ch,~384 kbps avg
MediaInfo

Видео
Идентификатор : 1
Формат : AVC
Формат/Информация : Advanced Video Codec
Профиль формата : High@L3.1
Параметр CABAC формата : Да
Параметр ReFrames формата : 4 кадры
Идентификатор кодека : V_MPEG4/ISO/AVC
Продолжительность : 1 ч. 43 м.
Битрейт : 2629 Кбит/сек
Ширина : 1280 пикс.
Высота : 546 пикс.
Соотношение сторон : 2,35:1
Частота кадров : 23,976 кадр/сек
Цветовое пространство : YUV
Подвыборка цветности : 4:2:0
Битовая глубина : 8 бит
Тип развёртки : Прогрессивная
Бит/(Пиксели*Кадры) : 0.157
Размер потока : 1,85 Гбайт (85%)
Библиотека кодирования : x264 core 112 r1834bm a51816a
Настройки программы : cabac=1 / ref=1 / deblock=1:0:0 / analyse=0x3:0x3 / me=dia / subme=1 / psy=1 / psy_rd=0.00:0.00 / mixed_ref=0 / me_range=16 / chroma_me=1 / trellis=0 / 8x8dct=1 / cqm=0 / deadzone=21,11 / fast_pskip=1 / chroma_qp_offset=0 / threads=1 / sliced_threads=0 / nr=0 / decimate=1 / interlaced=0 / constrained_intra=0 / bframes=3 / b_pyramid=2 / b_adapt=1 / b_bias=0 / direct=1 / weightb=1 / open_gop=0 / weightp=1 / keyint=250 / keyint_min=23 / scenecut=40 / intra_refresh=0 / rc=2pass / mbtree=0 / bitrate=2629 / ratetol=1.0 / qcomp=0.60 / qpmin=0 / qpmax=51 / qpstep=4 / cplxblur=20.0 / qblur=0.5 / crop_rect=0,0,0,0 / ip_ratio=1.40 / pb_ratio=1.30 / aq=1:1.00
Язык : English

Аудио
Идентификатор : 2
Формат : AC-3
Формат/Информация : Audio Coding 3
Расширение режима : CM (complete main)
Идентификатор кодека : A_AC3
Продолжительность : 1 ч. 43 м.
Вид битрейта : Постоянный
Битрейт : 384 Кбит/сек
Канал(ы) : 6 канала(ов)
Расположение каналов : Front: L C R, Side: L R, LFE
Частота : 48,0 КГц
Битовая глубина : 16 бит
Метод сжатия : С потерями
Размер потока : 285 Мбайт (13%)
Язык : Russian

Текст #1
Идентификатор : 3
Формат : UTF-8
Идентификатор кодека : S_TEXT/UTF8
Идентификатор кодека/Информация : UTF-8 Plain Text
Язык : English

Текст #2
Идентификатор : 4
Формат : UTF-8
Идентификатор кодека : S_TEXT/UTF8
Идентификатор кодека/Информация : UTF-8 Plain Text
Язык : Russian

Текст #3
Идентификатор : 5
Формат : UTF-8
Идентификатор кодека : S_TEXT/UTF8
Идентификатор кодека/Информация : UTF-8 Plain Text
Язык : English



2010
  • Скачать торрент: "Не отпускай меня / Never Let Me Go (Марк Романек) [2010, Фантастика, триллер, драма, HDRip-AVC]VO"

    сидеры:
    0
    личеры:
    0
    аватар robot robot 2011-02-22