Кто не пускает нас на Марс? (Андрей Розов) [2013, документальный, SATRip]

Описание | Скачать торрент

Кто не пускает нас на Марс?



Год выпуска: 2013
Страна: Россия
Жанр: документальный
Продолжительность: 00:43:55
Перевод: Не требуется
Русские субтитры: нет
Режиссер: Андрей Розов
Описание: Одна из главных тайн Марса открыта! На нем когда-то была вода. Это стало известно после обнаружения роботом Курьесити неоспоримых признаков существовавшей когда-то на планете жизни. Аппарат, название которого переводится как "любопытство", помог впервые ответить на один из важных вопросов: есть или была ли когда-то на Марсе жизнь?
Но не менее удивительно другое: над всем, что связано с исследованиями Марса, словно витает злой рок. Лишь треть всех аппаратов, отправленных к красной планете, выполнила свою задачу; остальные либо пропадали на пути к Марсу, либо загадочно погибали. Ученые уже окрестили сложности в изучении планеты марсианским проклятием. Последней в цепочке странных совпадений стала неожиданная катастрофа с российским "Фобос-Грунтом", стартовавшим с Байконура 9 ноября 2011 года. Всего Россия потеряла 25 аппаратов, США – 14. Бывший сотрудник НАСА Ричард Хогланд еще в далекие 70-е назвал непостижимую силу, которая раз за разом "съедает" спутники, "великим галактическим вором".
Что же на самом деле происходит на красной планете? Почему Марс до сих пор полон тайн? Анализируя причины поломок, начиная с 60-х и до сегодняшнего дня, конструкторы каждый раз сталкивались с цепочкой нелепых случайностей, которые становились роковыми. Как будто кто-то отслеживал проводимые в секретности эксперименты и срывал полет. Но даже аппараты, подлетавшие близко к Марсу и севшие на его поверхность, нередко испытывали на себе его загадочное воздействие. Не избежал этой участи и прибывший на планету в августе 2012 года Курьесити. Робот прожег лазером марсианскую почву - и тут же вышел из строя один из важнейших его узлов. В 1988 году к спутнику Марса отправили два советских аппарата. Долетел лишь один. Перед тем как исчезнуть, он зафиксировал в поле своего обзора, в районе Фобоса, "неизвестный объект значительных размеров". До сих пор ученые не могут ответить на вопрос, что такое Фобос. Многие уверены - это не спутник Марса, а древний космический корабль, межпланетная станция, охраняющая планету с помощью специального невидимого щита. Именно он губит аппараты.
Откровенные мистификации и удивительные факты делали Марс самой таинственной планетой для нас. Ни одна из планет не вызывала столько эмоций и священного ужаса. Но, несмотря на это, люди всегда чувствовали с ним какую-то необъяснимую связь.
Автор сценария: Екатерина Чурикова
качество: SATRip
формат: AVI
Видео: 640x480 (1.33:1), 25 fps, XviD MPEG-4 ~1644 kbps avg, 0.21 bit/pixel
Аудио: 48 kHz, MPEG Layer 3, 2 ch, ~128.00 kbps avg
MediaInfo
Формат : AVI
Формат/Информация : Audio Video Interleave
Размер файла : 560 Мбайт
Продолжительность : 43 м.
Общий поток : 1782 Кбит/сек
Библиотека кодирования : VirtualDub build 30009/release
Видео
Идентификатор : 0
Формат : MPEG-4 Visual
Профиль формата : Advanced Simple@L5
Параметр BVOP формата : 2
Параметр QPel формата : Нет
Параметр GMC формата : Без точки перехода
Параметр матрицы формата : Default (MPEG)
Режим смешивания : Сжатый битовый поток
Идентификатор кодека : XVID
Идентификатор кодека/Подсказка : XviD
Продолжительность : 43 м.
Битрейт : 1644 Кбит/сек
Ширина : 640 пикселей
Высота : 480 пикселей
Соотношение сторон : 4:3
Частота кадров : 25,000 кадров/сек
Цветовое пространство : YUV
Субдискретизация насыщенности : 4:2:0
Битовая глубина : 8 бит
Тип развёртки : Прогрессивная
Метод сжатия : С потерями
Бит/(Пиксели*Кадры) : 0.214
Размер потока : 517 Мбайт (92%)
Библиотека кодирования : XviD 64
Аудио
Идентификатор : 1
Формат : MPEG Audio
Версия формата : Version 1
Профиль формата : Layer 3
Режим : Joint stereo
Расширение режима : MS Stereo
Идентификатор кодека : 55
Идентификатор кодека/Подсказка : MP3
Продолжительность : 43 м.
Вид битрейта : Постоянный
Битрейт : 128 Кбит/сек
Каналы : 2 канала
Частота : 48,0 КГц
Метод сжатия : С потерями
Размер потока : 40,2 Мбайт (7%)
Выравнивание : Разделение по промежуткам
Продолжительность промежутка : 40 мс. (1,00 видеокадр)
Время предзагрузки промежутка : 500 мс.

документальный, 2013, Россия
  • Скачать торрент: "Кто не пускает нас на Марс? (Андрей Розов) [2013, документальный, SATRip]"

    сидеры:
    0
    личеры:
    0
    аватар 28fox 28fox 2013-04-11