Все любят Рэймонда / Everybody Loves Raymond / Сезон: 5 / Серии: 1-25 из 25 (Филип Розенталь / Philip Rosenthal) [2000, комед

Описание | Скачать торрент

Все любят Рэймонда / Everybody Loves Raymond



Год выпуска:
2000
Страна:
США
Жанр:
комедия
Продолжительность:
~20 мин

Перевод:
Профессиональный (двухголосый закадровый)
SET
Русские субтитры: нет
Режиссёр:
Филип Розенталь / Philip Rosenthal

В ролях:
Рэй Романо, Патриция Хитон, Дорис Робертс, Брэд Гэррет, Питер Бойл, Мэдилин Свитен, Сойер Свитен, Салливан Свитен, Моника Хоран

Описание: Кажется, что у Рэймонда Бэроуна есть все. Замечательная жена, прекрасная семья, любимая работа, отличный дом на Лонг Айленде. Но кое-какие проблемы у Рэя все-таки есть. Это его ужасно надоедливые родители, живущие через улицу, и его ревнивый старший брат. Эти две проблемы омрачают жизнь Рэя.

Доп. информация: Звук записан с канала SET
Ссылка на предыдущие и альтернативные раздачи:
Сэмпл:
http://sendfile.su/801069
Качество: DVDRip
Формат: AVI
Видео кодек: XviD
Аудио кодек: MP3
Видео: XviD, 640x352, 23.976 fps, 882 kbps, 0.163 bit/pixel
Аудио: MP3, 48000Hz, stereo, 192 kbps
MediaInfo
General
Complete name : H:\Мои Раздачи\Все любят Рэймонда Сезон 5\05_03 - The Wallpaper.avi
Format : AVI
Format/Info : Audio Video Interleave
File size : 174 MiB
Duration : 22mn 29s
Overall bit rate : 1 083 Kbps
Director : sergtor09 from tfile.org
Writing application : VirtualDubMod 1.5.10.2 (build 2540/release)
Writing library : VirtualDubMod build 2540/release
Video
ID : 0
Format : MPEG-4 Visual
Format profile : Simple@L3
Format settings, BVOP : 1
Format settings, QPel : No
Format settings, GMC : No warppoints
Format settings, Matrix : Default (MPEG)
Codec ID : XVID
Codec ID/Hint : XviD
Duration : 22mn 29s
Bit rate : 882 Kbps
Width : 640 pixels
Height : 352 pixels
Display aspect ratio : 16:9
Frame rate : 23.976 fps
Color space : YUV
Chroma subsampling : 4:2:0
Bit depth : 8 bits
Scan type : Progressive
Compression mode : Lossy
Bits/(Pixel*Frame) : 0.163
Stream size : 142 MiB (81%)
Writing library : XviD 1.1.0 Beta2 (UTC 2005-04-04)
Audio
ID : 1
Format : MPEG Audio
Format version : Version 1
Format profile : Layer 3
Mode : Joint stereo
Mode extension : MS Stereo
Codec ID : 55
Codec ID/Hint : MP3
Duration : 22mn 29s
Bit rate mode : Constant
Bit rate : 192 Kbps
Channel(s) : 2 channels
Sampling rate : 48.0 KHz
Compression mode : Lossy
Stream size : 30.9 MiB (18%)
Alignment : Aligned on interleaves
Interleave, duration : 42 ms (1.00 video frame)
Interleave, preload duration : 504 ms
Writing library : LAME3.98
Encoding settings : -m j -V 4 -q 3 -lowpass 18.6 -b 192
Внимание! Раздача ведётся путём добавления новых серий
Внимание! Раздача ведётся путём добавления новых серий; при каждом добавлении создаётся новый торрент. Чтобы начать докачку новой серии, пользователям необходимо сделать следующее:
(1) остановить скачивание,
(2) удалить старый торрент у себя из клиента (старые серии удалять не надо),
(3) скачать новый торрент и запустить его у себя в клиенте вместо старого, при этом указать клиенту путь в старую папку куда и должно происходить скачивание новых серий.
Ваш клиент при этом должен произвести хеширование (проверку) старой папки (если не производит сам - помогите ему сделать это), и будет докачивать только те серии которых у вас ещё нет. Старые серии при этом не удаляются, а продолжают раздаваться!
Eсли вы уже удалили старые серии, то предотвратить повторную закачку старых серий можно, отжав галочку в соответствующих местах при запуске нового торрента. По возможности, желательно не удалять старые серии как можно дольше чтобы релизёр не столько продолжал раздавать старые серии, а смог сконцентрироваться на новых

комедия, 2000, США
  • Скачать торрент: "Все любят Рэймонда / Everybody Loves Raymond / Сезон: 5 / Серии: 1-25 из 25 (Филип Розенталь / Philip Rosenthal) [2000, комедия, DVDRip] DVO (SET)"

    сидеры:
    0
    личеры:
    0
    аватар 28fox 28fox 2013-04-28