Инспектор Деррик / Derrick / Сезон: 4 / Серии: 39 из 281 (Хельмут Ашли / Helmut Ashley) [1974-1998, детектив, DVDRip] MVO (ТВ

Описание | Скачать торрент

Инспектор Деррик / Derrick



Год выпуска: 1974
Страна: ФРГ
Жанр: детектив
Продолжительность: ~ 60 мин. серия
Перевод: Профессиональный (многоголосый закадровый) ТВЦ
Русские субтитры: нет
Режиссёр: Хельмут Ашли / Helmut Ashley
В ролях:
Хорст Тапперт / Horst Tappert / Стефан Деррик
Фриц Веппер / Fritz Wepper / Харри Кляйн
и другие
Описание: Сериал о работе инспектора мюнхенской полиции Деррика и его верного помощника Харри Кляйна. Основной упор в расследованиях делается на общении с людьми, а не на погони и перестрелки. В более поздних сезонах Деррик часто, определяя виновника, вовлекает его в длительные разговоры, заставляет раскрыться и в конце концов признаться в содеянном.
Рип найден в сети. Звук из ослика (emule) ( спасибо
melodie16 ).
Есть фрагменты без перевода (для 39-й серии включены размеченные, но не заполненные субтитры).
Ссылка на предыдущие и альтернативные раздачи:
Серии в раздаче
04х10 - Труп в лесу / Tote im Wald /

Сэмпл: http://multi-up.com/862380
Качество: DVDRip
Формат: AVI
Видео кодек: XviD
Аудио кодек: MP3
Видео: 576x432 (1.33:1), 25 fps, XviD MPEG-4 ~1209 kbps avg, 0.19 bit/pixel
Аудио 1 (рус.): 48 kHz, MPEG Layer 3, 2 ch, ~128.00 kbps avg
Аудио 2 (нем.): 48 kHz, MPEG Layer 3, 2 ch, ~192.00 kbps avg
MediaInfo
General
Complete name Derrick.04x10_Tote.im.Wald.DVDRip_rus.avi
Format : AVI
Format/Info : Audio Video Interleave
File size : 655 MiB
Duration : 59mn 16s
Overall bit rate : 1 545 Kbps
Writing application : VirtualDubMod 1.5.10.2 (build 2542/release)
Writing library : VirtualDubMod build 2542/release
Video
ID : 0
Format : MPEG-4 Visual
Format profile : Advanced Simple@L5
Format settings, BVOP : 2
Format settings, QPel : No
Format settings, GMC : No warppoints
Format settings, Matrix : Default (H.263)
Muxing mode : Packed bitstream
Codec ID : XVID
Codec ID/Hint : XviD
Duration : 59mn 16s
Bit rate : 1 210 Kbps
Width : 576 pixels
Height : 432 pixels
Display aspect ratio : 4:3
Frame rate : 25.000 fps
Color space : YUV
Chroma subsampling : 4:2:0
Bit depth : 8 bits
Scan type : Progressive
Compression mode : Lossy
Bits/(Pixel*Frame) : 0.195
Stream size : 513 MiB (78%)
Writing library : XviD 1.2.0.dev47 (UTC 2006-11-01)
Audio #1
ID : 1
Format : MPEG Audio
Format version : Version 1
Format profile : Layer 3
Mode : Joint stereo
Mode extension : MS Stereo
Codec ID : 55
Codec ID/Hint : MP3
Duration : 59mn 14s
Bit rate mode : Constant
Bit rate : 128 Kbps
Channel(s) : 2 channels
Sampling rate : 48.0 KHz
Compression mode : Lossy
Stream size : 54.2 MiB (8%)
Alignment : Aligned on interleaves
Interleave, duration : 40 ms (1.00 video frame)
Interleave, preload duration : 504 ms
Audio #2
ID : 2
Format : MPEG Audio
Format version : Version 1
Format profile : Layer 3
Mode : Joint stereo
Mode extension : MS Stereo
Codec ID : 55
Codec ID/Hint : MP3
Duration : 59mn 16s
Bit rate mode : Constant
Bit rate : 192 Kbps
Channel(s) : 2 channels
Sampling rate : 48.0 KHz
Compression mode : Lossy
Stream size : 81.4 MiB (12%)
Alignment : Aligned on interleaves
Interleave, duration : 40 ms (1.00 video frame)
Interleave, preload duration : 504 ms
Writing library : LAME3.97
Encoding settings : -m j -V 4 -q 2 -lowpass 18.6 -b 192

детектив, 1974, ФРГ
  • Скачать торрент: "Инспектор Деррик / Derrick / Сезон: 4 / Серии: 39 из 281 (Хельмут Ашли / Helmut Ashley) [1974-1998, детектив, DVDRip] MVO (ТВЦ) + Original"

    сидеры:
    0
    личеры:
    0
    аватар 28fox 28fox 2013-05-06