Чудо в камере №7 / Miracle in Cell No.7 / Number 7 Room's Gift (Ли Хван Кён / Lee Hwan-Kyung) [2013, Южная Корея., Драм

Описание | Скачать торрент

Чудо в камере №7 / Miracle in Cell No.7 / Number 7 Room's Gift



Страна: Южная Корея.
Жанр: Драма, комедия, папины дочки.
Год выпуска: 2013
Продолжительность: 02:07:35
Перевод: Субтитры
Cубтитры: русские, английские, тайские.
Оригинальная аудиодорожка: Корейский
Режиссер: Ли Хван Кён / Lee Hwan-Kyung
В ролях:
Рю Сын Рён / Ryu Seung Ryong
Пак Шин Хе / Park Shin Hye
О Даль Су / Oh Dal Soo
Описание:
А вы в детстве смотрели Сейлор Мун?
"Я борец за добро и справедливость, прекрасный воин Сейлор Мун. И я несу возмездие во имя луны."
Возмездие... а всегда ли оно бывает справедливым?
Это фильм о нежной любви между отцом и его маленькой дочерью. И о том, что каждый из нас может стать Сейлор Мун.
Доп.информация: Перевод фансаб-группы
Перевод Бонист
Редакция Xiao Mei
Сэмпл: http://www.mediafire.com/download/64bg4s29r2bpwgx/%...n.Cell.No.7.2013
Качество видео: DVDRip
Формат видео: MKV
Видео: MPEG4 Video (H264) 720x312 23.98fps
Аудио: Dolby AC3 48000Hz 6ch Корейский
Аудио 2: Dolby AC3 48000Hz 6ch Тайский
Формат субтитров: prerendered (IDX+SUB) Тайские, Английские
Формат субтитров: softsub (SSA/ASS) Русские
MediaInfo
General
Complete name : C:\[alliance] Miracle.in.Cell.No.7.2013.DVDRip.x264.AC3-D2M.mkv
Format : Matroska
File size : 1.72 GiB
Duration : 2h 7mn
Overall bit rate : 1 927 Kbps
Encoded date : UTC 2013-06-07 21:44:55
Writing application : mkvmerge v2.2.0 ('Turn It On Again') built on Mar 4 2008 13:20:25
Writing library : libebml v0.7.7 + libmatroska v0.8.1
Video
ID : 1
Format : AVC
Format/Info : Advanced Video Codec
Format profile : High@L4.1
Format settings, CABAC : Yes
Format settings, ReFrames : 4 frames
Muxing mode : Container profile=Unknown@4.1
Codec ID : V_MPEG4/ISO/AVC
Duration : 2h 7mn
Bit rate : 993 Kbps
Nominal bit rate : 1 024 Kbps
Width : 720 pixels
Height : 312 pixels
Display aspect ratio : 2.35:1
Frame rate : 23.976 fps
Resolution : 24 bits
Colorimetry : 4:2:0
Scan type : Progressive
Bits/(Pixel*Frame) : 0.184
Stream size : 905 MiB (51%)
Writing library : x264 core 130 r2273 b3065e6
Encoding settings : cabac=1 / ref=3 / deblock=1:0:0 / analyse=0x3:0x133 / me=umh / subme=10 / psy=1 / psy_rd=1.00:0.00 / mixed_ref=1 / me_range=24 / chroma_me=1 / trellis=2 / 8x8dct=1 / cqm=0 / deadzone=21,11 / fast_pskip=1 / chroma_qp_offset=-2 / threads=3 / lookahead_threads=1 / sliced_threads=0 / nr=0 / decimate=1 / interlaced=0 / bluray_compat=0 / constrained_intra=0 / bframes=3 / b_pyramid=2 / b_adapt=2 / b_bias=0 / direct=3 / weightb=1 / open_gop=0 / weightp=2 / keyint=250 / keyint_min=23 / scenecut=40 / intra_refresh=0 / rc_lookahead=60 / rc=2pass / mbtree=1 / bitrate=1024 / ratetol=1.0 / qcomp=0.60 / qpmin=0 / qpmax=69 / qpstep=4 / cplxblur=20.0 / qblur=0.5 / ip_ratio=1.40 / aq=1:1.00
Language : Korean
Audio #1
ID : 2
Format : AC-3
Format/Info : Audio Coding 3
Codec ID : A_AC3
Duration : 2h 7mn
Bit rate mode : Constant
Bit rate : 448 Kbps
Channel(s) : 6 channels
Channel positions : Front: L C R, Surround: L R, LFE
Sampling rate : 48.0 KHz
Stream size : 409 MiB (23%)
Language : Korean
Audio #2
ID : 3
Format : AC-3
Format/Info : Audio Coding 3
Codec ID : A_AC3
Duration : 2h 7mn
Bit rate mode : Constant
Bit rate : 448 Kbps
Channel(s) : 6 channels
Channel positions : Front: L C R, Surround: L R, LFE
Sampling rate : 48.0 KHz
Stream size : 409 MiB (23%)
Language : Thai
Text #1
ID : 4
Format : VobSub
Codec ID : S_VOBSUB
Codec ID/Info : The same subtitle format used on DVDs
Language : Thai
Text #2
ID : 5
Format : VobSub
Codec ID : S_VOBSUB
Codec ID/Info : The same subtitle format used on DVDs
Language : English
Пример субтитров
Dialogue: 0,0:21:04.91,0:21:05.77,Default,,0,0,0,,Эй!
Dialogue: 0,0:21:07.09,0:21:08.47,Default,,0,0,0,,Что натворил?
Dialogue: 0,0:21:11.43,0:21:12.60,Default,,0,0,0,,Я парковщик.
Dialogue: 0,0:21:12.76,0:21:14.87,Default,,0,0,0,,Счастливый, счастливый "Хеппи Март".
Dialogue: 0,0:21:14.94,0:21:17.34,Default,,0,0,0,,Я парковал машины.
Dialogue: 0,0:21:22.70,0:21:25.02,Default,,0,0,0,,Контрабанда тачек, по ходу.
Dialogue: 0,0:21:25.92,0:21:29.68,Default,,0,0,0,,Вон твоё место. Будешь спать там.
Dialogue: 0,0:21:30.06,0:21:32.36,Default,,0,0,0,,Снимай туфли и садись давай.
Dialogue: 0,0:21:35.03,0:21:37.30,Default,,0,0,0,,Туда! Иди уже.
Dialogue: 0,0:21:37.72,0:21:39.19,Default,,0,0,0,,Ноль внимания.
Dialogue: 0,0:21:40.66,0:21:42.39,Default,,0,0,0,,Дай документы.
Dialogue: 0,0:21:45.72,0:21:47.59,Default,,0,0,0,,Предлагаешь мне читать?
Dialogue: 0,0:21:47.69,0:21:50.21,Default,,0,0,0,,- Чун Хо.\N- Ну давай, почитаем.
Dialogue: 0,0:21:51.94,0:21:56.60,Default,,0,0,0,,Статья 287.\N«Похищение несовершеннолетних».
Dialogue: 0,0:21:56.72,0:21:59.26,Default,,0,0,0,,Ах, ты сволочь!
Dialogue: 0,0:22:02.28,0:22:03.09,Default,,0,0,0,,Продолжай.
Dialogue: 0,0:22:03.15,0:22:06.11,Default,,0,0,0,,Статья 305. «Педофилия»
Dialogue: 0,0:22:09.63,0:22:11.67,Default,,0,0,0,,Накрывай его!
Dialogue: 0,0:22:13.83,0:22:16.75,Default,,0,0,0,,Ублюдок! Скотина!
Dialogue: 0,0:22:16.86,0:22:20.10,Default,,0,0,0,,Чёртов извращенец! Ты заслужил это!
Dialogue: 0,0:22:23.80,0:22:26.43,Default,,0,0,0,,Статья 298.
Dialogue: 0,0:22:27.44,0:22:29.60,Default,,0,0,0,,«Непристойное действие»!
Dialogue: 0,0:22:30.45,0:22:32.42,Default,,0,0,0,,Статья 301
Dialogue: 0,0:22:32.59,0:22:34.82,Default,,0,0,0,,«Смерть в результате изнасилования»!
Dialogue: 0,0:22:36.55,0:22:38.91,Default,,0,0,0,,Вот ведь крыса!
Dialogue: 0,0:22:39.62,0:22:40.76,Default,,0,0,0,,Вердикт!
Dialogue: 0,0:22:41.29,0:22:42.71,Default,,0,0,0,,Казнь?
Dialogue: 0,0:22:49.28,0:22:51.99,Default,,0,0,0,,Смертник в нашей камере?
Dialogue: 0,0:22:52.21,0:22:54.24,Default,,0,0,0,,Какого чёрта?
Dialogue: 0,0:23:03.80,0:23:05.16,Default,,0,0,0,,Внимание!
Dialogue: 0,0:23:06.18,0:23:09.51,Default,,0,0,0,,Е Сын будет жить с нами.\NПоздоровайтесь.
Dialogue: 0,0:23:09.78,0:23:12.20,Default,,0,0,0,,Привет, Е Сын.
Dialogue: 0,0:23:14.64,0:23:16.66,Default,,0,0,0,,Поздоровайся.

драма, комедия, папины дочки., 2013, Южная Корея.
  • Скачать торрент: "Чудо в камере №7 / Miracle in Cell No.7 / Number 7 Room's Gift (Ли Хван Кён / Lee Hwan-Kyung) [2013, Южная Корея., Драм"

    сидеры:
    0
    личеры:
    0
    аватар wolodja66 wolodja66 2013-06-24