День для моей любви / День моей любви / Den pro mou lásku / Day for My Love (Юрай Герц / Juraj Herz) [1976, Чехословак

Описание | Скачать торрент

День для моей любви / День моей любви / Den pro mou lásku / Day for My Love



Страна: Чехословакия
Жанр: драма, мелодрама
Год выпуска: 1976
Продолжительность: 01:28:10
Перевод: Одноголосый закадровый (по субтитрам от Leierkastenmann )
Cубтитры: русские
Оригинальная аудиодорожка: чешский
Режиссер: Юрай Герц / Juraj Herz
В ролях: Марта Ванчурова, Властимил Харапес, Sylva Kamenicka, Ева Ситта, Др. Милада Черна, Эмма Черна, Lubomir Cernik, Ян Гартль, Zofie Kanyzova-Vesela, Дана Медржицка, Житка Новакова
О фильме: История об одной молодой семье, которой судьба уготовила серьезное испытание. Петр заканчивает обучение на архитектурном факультете, Мария — профессиональный фотограф, их четырехлетняя дочь Марушка ходит в детский сад. Но в их теплую семейную жизнь неожиданно вторгается тяжелая болезнь, а затем и смерть их маленькой дочери. Трагедия меняет их семейную жизнь и отношения...
Доп. информация: http://www.imdb.com/title/tt0074393/
Награды и номинации:
Берлинский кинофестиваль, 1977 год
Победитель (1):
Приз Международной Католической организации в области кино - рекомендация (конкурсная программа)
Номинации (1):
Золотой Медведь
Исходник
Сэмпл: http://rusfolder.com/37045733
Качество видео: DVDRip
Формат видео: AVI
Видео: 704x528 (1.33:1), 25 fps, XviD build 73 ~1965 kbps avg, 0.21 bit/pixel
Аудио #1: 48 kHz, AC3 Dolby Digital, 2 ch, ~192.00 kbps avg - русский
Аудио #2: 48 kHz, AC3 Dolby Digital, 2 ch, ~192.00 kbps avg - оригинал
Формат субтитров: softsub (SRT)
MediaInfo
General
Complete name : E:\Фильмы\Den pro mou lasku\Den pro mou lasku.avi
Format : AVI
Format/Info : Audio Video Interleave
File size : 1.46 GiB
Duration : 1h 28mn
Overall bit rate : 2 364 Kbps
Movie name : Den pro mou lasku (1976) DVDRip
Director : Juraj Herz
Writing application : VirtualDubMod 1.5.10.2 (build 2540/release)
Writing library : VirtualDubMod build 2540/release
Copyright : Rip by Judas_X
Video
ID : 0
Format : MPEG-4 Visual
Format profile : Advanced Simple@L5
Format settings, BVOP : 2
Format settings, QPel : No
Format settings, GMC : No warppoints
Format settings, Matrix : Custom
Codec ID : XVID
Codec ID/Hint : XviD
Duration : 1h 28mn
Bit rate : 1 965 Kbps
Width : 704 pixels
Height : 528 pixels
Display aspect ratio : 4:3
Frame rate : 25.000 fps
Color space : YUV
Chroma subsampling : 4:2:0
Bit depth : 8 bits
Scan type : Progressive
Compression mode : Lossy
Bits/(Pixel*Frame) : 0.211
Stream size : 1.21 GiB (83%)
Writing library : XviD 73
Audio #1
ID : 1
Format : AC-3
Format/Info : Audio Coding 3
Mode extension : CM (complete main)
Format settings, Endianness : Big
Codec ID : 2000
Duration : 1h 28mn
Bit rate mode : Constant
Bit rate : 192 Kbps
Channel(s) : 2 channels
Channel positions : Front: L R
Sampling rate : 48.0 KHz
Bit depth : 16 bits
Compression mode : Lossy
Stream size : 121 MiB (8%)
Alignment : Split accross interleaves
Interleave, duration : 40 ms (1.00 video frame)
Interleave, preload duration : 500 ms
Audio #2
ID : 2
Format : AC-3
Format/Info : Audio Coding 3
Mode extension : CM (complete main)
Format settings, Endianness : Big
Codec ID : 2000
Duration : 1h 28mn
Bit rate mode : Constant
Bit rate : 192 Kbps
Channel(s) : 2 channels
Channel positions : Front: L R
Sampling rate : 48.0 KHz
Bit depth : 16 bits
Compression mode : Lossy
Stream size : 121 MiB (8%)
Alignment : Split accross interleaves
Interleave, duration : 40 ms (1.00 video frame)
Interleave, preload duration : 500 ms

драма, мелодрама, 1976, Чехословакия
  • Скачать торрент: "День для моей любви / День моей любви / Den pro mou lásku / Day for My Love (Юрай Герц / Juraj Herz) [1976, Чехословак"

    сидеры:
    0
    личеры:
    0
    аватар Владимир33 Владимир33 2013-07-02