Каджунские Звезды Ломбарда / Cajun Pawn Stars / Сезон: 2 Серии: 13-14 из 17 [2012, Познавательный, DVB] History channel

Описание | Скачать торрент

Каджунские Звезды Ломбарда / Cajun Pawn Stars


Год выпуска: 2012
Страна: США
Жанр: Познавательный
Продолжительность: 2 x 00:20:46
Перевод: Профессиональный (многоголосый закадровый)
Русские субтитры: нет
Описание: Золотые и серебряные ломбард в Лас-Вегасе, сделанные всемирно известным хитом в истории серии Звезды Залог, это не единственный семейный магазин в Америке которая трещит по швам с единственным в своем роде исторических предметов и увлекательных историй. Серебряный доллар Залог & Ювелирные центр в Александрии, штат Луизиана принадлежит и управляется DeRamus Джимми и его семьи, представляет собой красочное место, которое собирает эклектичное множество исторических товар, с ежедневным потоком необычных местных символов пытается продать, покупке или пешка пунктов - в том числе скота.
качество: DVB by BS666
Сэмпл

формат: TS
Видео: MPEG2 | 720x576@1024x576 (16:9) | ~3 374 Kbps | 25.000 fps | ~0.325bits/pix
Аудио: MP2 | 48KHz | 2.0 (2ch) | 128 kbps [RUS | ENG]
Список выпусков/серий
13 "Under the Gun" | под прицелом
14 "Cash Cows" | дойные коровы
MediaInfo
General
Идентификатор : 1 (0x1)
Полное имя : H:\REC IPTV\History\Cajun Pawn Stars\Cajun.Pawn.Stars.S02.DVB.MPEG2-BS666\Cajun.Pawn.Stars.S02E13.DVB.MPEG2-BS666.ts
Формат : MPEG-TS
Размер файла : 559 MiB
Продолжительность : 20mn 51s
Режим общего битрейта : Variable
Общий поток : 3 744 Kbps
Максимальный общий битрейт : 35.5 Mbps
Video
Идентификатор : 4113 (0x1011)
Идентификатор меню : 1 (0x1)
Формат : MPEG Video
Версия формата : Version 2
Профиль формата : Main@Main
Параметр BVOP формата : Yes
Параметр матрицы формата : Custom
Параметр GOP формата : M=3, N=12
Идентификатор кодека : 2
Продолжительность : 20mn 51s
Вид битрейта : Variable
Битрейт : 3 300 Kbps
Максимальный битрейт : 15.0 Mbps
Ширина : 720 pixels
Высота : 576 pixels
Соотношение сторон : 16:9
Частота кадров : 25.000 fps
Стандарт вещания : PAL
Цветовое пространство : YUV
Субдискретизация насыщенности : 4:2:0
Битовая глубина : 8 bits
Тип развёртки : Interlaced
Порядок развёртки : Top Field First
Метод сжатия : Lossy
Бит/(Пиксели*Кадры) : 0.318
Размер потока : 493 MiB (88%)
Audio #1
Идентификатор : 4352 (0x1100)
Идентификатор меню : 1 (0x1)
Формат : MPEG Audio
Версия формата : Version 1
Профиль формата : Layer 2
Идентификатор кодека : 4
Продолжительность : 20mn 51s
Вид битрейта : Constant
Битрейт : 128 Kbps
Каналы : 2 channels
Частота : 48.0 KHz
Метод сжатия : Lossy
Размер потока : 19.1 MiB (3%)
Язык : Russian
Audio #2
Идентификатор : 4353 (0x1101)
Идентификатор меню : 1 (0x1)
Формат : MPEG Audio
Версия формата : Version 1
Профиль формата : Layer 2
Идентификатор кодека : 4
Продолжительность : 20mn 51s
Вид битрейта : Constant
Битрейт : 128 Kbps
Каналы : 2 channels
Частота : 48.0 KHz
Метод сжатия : Lossy
Размер потока : 19.1 MiB (3%)
Язык : English

познавательный, 2012, США
  • Скачать торрент: "Каджунские Звезды Ломбарда / Cajun Pawn Stars / Сезон: 2 Серии: 13-14 из 17 [2012, Познавательный, DVB] History channel"

    сидеры:
    0
    личеры:
    0
    аватар 28fox 28fox 2013-07-18